elhacker.net cabecera Bienvenido(a), Visitante. Por favor Ingresar o Registrarse
¿Perdiste tu email de activación?.

 

 


Tema destacado: (TUTORIAL) Aprende a emular Sentinel Dongle By Yapis


+  Foro de elhacker.net
|-+  Media
| |-+  Multimedia (Moderador: Songoku)
| | |-+  Algunos Videos de Youtube se Descargan sin Audio. (Solucionado)
0 Usuarios y 1 Visitante están viendo este tema.
Páginas: [1] Ir Abajo Respuesta Imprimir
Autor Tema: Algunos Videos de Youtube se Descargan sin Audio. (Solucionado)  (Leído 17,672 veces)
AlbertoBSD
Programador y
Moderador Global
***
Desconectado Desconectado

Mensajes: 3.589


🏴 Libertad!!!!!


Ver Perfil WWW
Algunos Videos de Youtube se Descargan sin Audio. (Solucionado)
« en: 2 Enero 2009, 20:10 pm »

Bueno despues de descargar algunos videos, hay veces que me los descarga sin audio, por ejemplo descargo una serie de videos en secuencia ya saben parte 1 de 5, 2 de 5.. etc. Todo bien  y llega el tercero lo descargo y lo convierto como los otros y no me tiene audio.

Código
  1. Anon@localhost % youtube-dl "http://www.youtube.com/watch?v=E6tlfZfG12Q"
  2. Anon@localhost % flv2mpeg4 E6tlfZfG12Q.flv E6tlfZfG12Q.avi
  3. Anon@localhost % echo Audio Ok
  4. Audio Ok
  5. Anon@localhost % youtube-dl "http://www.youtube.com/watch?v=NQ7iZOLh9eA"
  6. Anon@localhost % flv2mpeg4 NQ7iZOLh9eA.flv NQ7iZOLh9eA.avi
  7. Anon@localhost % echo Audio Ok
  8. Audio Ok
  9. Anon@localhost % youtube-dl "http://www.youtube.com/watch?v=6kGD2BlSgMw"
  10. Anon@localhost % flv2mpeg4 6kGD2BlSgMw.flv 6kGD2BlSgMw.avi
  11. Anon@localhost % echo No Audio
  12. No Audio
  13. Anon@localhost % uname -a
  14. FreeBSD  7.0-RELEASE FreeBSD 7.0-RELEASE #6: Sat Dec 27 08:13:05 CST 2008     root@:/usr/src/sys/i386/compile/VGN-N350  i386
  15.  

No se si sea problema de mi sistema, pero quisiera saber si alguien puede descargar el ultimo video de ejemplo, y ver si se oye despues de ser transformado.

Cabe mencionar que tambien he usado ffmpeg y pasa lo mismo. Todo esto y en la pagina si se ven bien, Ahora si he revisado el audio de mi sistema y obvio que esta bien.

Saludos y Gracias de antemano.


« Última modificación: 25 Marzo 2009, 20:51 pm por Anon » En línea

Donaciones
1Coffee1jV4gB5gaXfHgSHDz9xx9QSECVW
AlbertoBSD
Programador y
Moderador Global
***
Desconectado Desconectado

Mensajes: 3.589


🏴 Libertad!!!!!


Ver Perfil WWW
Re: Algunos Videos de Youtube se Descargan sin Audio.
« Respuesta #1 en: 7 Enero 2009, 04:31 am »

Bueno, me volvio a pasar lo mismo baje otro video:

Código:
http://www.youtube.com/watch?v=q0YoJA7TAwA - [1] LHC, el próximo Big Bang con David Kaplan.

Y al transformarlo no tiene sonido, y en la web si lo tiene.

Alguien puedo confirmar.

Un Saludo y Gracias!


En línea

Donaciones
1Coffee1jV4gB5gaXfHgSHDz9xx9QSECVW
dantemc


Desconectado Desconectado

Mensajes: 2.003

:D


Ver Perfil
Re: Algunos Videos de Youtube se Descargan sin Audio.
« Respuesta #2 en: 7 Enero 2009, 12:10 pm »

yo lo pruebo pero mañana, que tengo capado youtube. espera y pruebo.

saluh
En línea

8-D
Songoku
Supersayan y
Moderador
***
Desconectado Desconectado

Mensajes: 15.358


Supersayan


Ver Perfil WWW
Re: Algunos Videos de Youtube se Descargan sin Audio.
« Respuesta #3 en: 7 Enero 2009, 20:41 pm »

Yo me descargado el flv y por supuesto tiene sonido, y al convertirlo a avi con el mencoder sigue teniendo sonido claro está. Ahora bien porque a ti en la conversion pierdes el sonido eso es ya otro tema para el que por desgracia no tengo respuesta.
Saludos...

Songoku


P.D muy interesante la clase de ciencia que da sobre el lhc.
En línea

AlbertoBSD
Programador y
Moderador Global
***
Desconectado Desconectado

Mensajes: 3.589


🏴 Libertad!!!!!


Ver Perfil WWW
Re: Algunos Videos de Youtube se Descargan sin Audio.
« Respuesta #4 en: 7 Enero 2009, 23:59 pm »

Ok, gracias por las respuestas, teniendo ahora en cuenta que si conserva el sonido, tendre ahora ponerme a ver el formato de los archivos flv y ver un poco mas a fondo el proceso de la conversion.

Saludos y Gracias.



Si la verdad que por eso los bajo, por que si estan muy interesantes.
En línea

Donaciones
1Coffee1jV4gB5gaXfHgSHDz9xx9QSECVW
dantemc


Desconectado Desconectado

Mensajes: 2.003

:D


Ver Perfil
Re: Algunos Videos de Youtube se Descargan sin Audio.
« Respuesta #5 en: 8 Enero 2009, 22:31 pm »

a mi tambien me dascarga bien. uff ya me estaba asustando.
En línea

8-D
AlbertoBSD
Programador y
Moderador Global
***
Desconectado Desconectado

Mensajes: 3.589


🏴 Libertad!!!!!


Ver Perfil WWW
Re: Algunos Videos de Youtube se Descargan sin Audio. (Solucionado)
« Respuesta #6 en: 25 Marzo 2009, 21:08 pm »

Bien, el problema era el programa flv2mpeg que estaba fallando. (Que por cierto tiene otras fallas que ya he reportado)

He probado con ffmpeg y todo va de maravilla, el problema es que flv2mpeg perdia la capa de audio, y con ffmpeg no esta ese problema:

Código:
Anon@localhost % youtube-dl "http://www.youtube.com/watch?v=FeWBoADvKd4"
[youtube] FeWBoADvKd4: Downloading video webpage
[youtube] FeWBoADvKd4: Extracting video information
[youtube] FeWBoADvKd4: URL: http://www.youtube.com/get_video?video_id=FeWBoADvKd4&t=vjVQa1PpcFNSnfwxHUvvujjsX0htrs8Jr8LfQJOgr2w=
[download] Destination: FeWBoADvKd4.flv
[download] 100.0% of 1.49M at   13.02k/s ETA 00:00


Citar
Anon@localhost % ~/local/bin/ffmpeg -i FeWBoADvKd4.flv
FFmpeg version SVN-r14424, Copyright (c) 2000-2008 Fabrice Bellard, et al.
  built on Mar 23 2009 00:36:11, gcc: 4.2.1 20070719  [FreeBSD]

Seems stream 0 codec frame rate differs from container frame rate: 1000.00 (1000/1) -> 30.00 (30/1)
Input #0, flv, from 'FeWBoADvKd4.flv':
  Duration: 00:00:39.90, start: 0.000000, bitrate: 64 kb/s
    Stream #0.0: Video: flv, yuv420p, 320x238, 30.00 tb(r)
    Stream #0.1: Audio: mp3, 22050 Hz, mono, 64 kb/s
Must supply at least one output file
Anon@localhost % ~/local/bin/ffmpeg -i FeWBoADvKd4.avi
FFmpeg version SVN-r14424, Copyright (c) 2000-2008 Fabrice Bellard, et al.
  built on Mar 23 2009 00:36:11, gcc: 4.2.1 20070719  [FreeBSD]
Input #0, avi, from 'FeWBoADvKd4.avi':
  Duration: 00:00:40.96, start: 0.000000, bitrate: 226 kb/s
    Stream #0.0: Video: mpeg4, yuv420p, 320x238 [PAR 1:1 DAR 160:119], 30.00 tb(r)
Must supply at least one output file


Despues de realizar la conversion con ffmpeg vemos que ahora si tiene la capa de audio:

Citar
Anon@localhost % ~/local/bin/ffmpeg -i FeWBoADvKd4.flv -sameq -y FeWBoADvKd4.avi
FFmpeg version SVN-r14424, Copyright (c) 2000-2008 Fabrice Bellard, et al.
  built on Mar 23 2009 00:36:11, gcc: 4.2.1 20070719  [FreeBSD]

Seems stream 0 codec frame rate differs from container frame rate: 1000.00 (1000/1) -> 30.00 (30/1)
Input #0, flv, from 'FeWBoADvKd4.flv':
  Duration: 00:00:39.90, start: 0.000000, bitrate: 64 kb/s
    Stream #0.0: Video: flv, yuv420p, 320x238, 30.00 tb(r)
    Stream #0.1: Audio: mp3, 22050 Hz, mono, 64 kb/s
Output #0, avi, to 'FeWBoADvKd4.avi':
    Stream #0.0: Video: mpeg4, yuv420p, 320x238, q=2-31, 200 kb/s, 30.00 tb(c)
    Stream #0.1: Audio: mp2, 22050 Hz, mono, 64 kb/s
Stream mapping:
  Stream #0.0 -> #0.0
  Stream #0.1 -> #0.1
Press [q] to stop encoding
frame= 1197 fps=246 q=0.0 Lsize=    4376kB time=39.90 bitrate= 898.5kbits/s   
video:4008kB audio:312kB global headers:0kB muxing overhead 1.303120%
Anon@localhost % ~/local/bin/ffmpeg -i FeWBoADvKd4.avi
FFmpeg version SVN-r14424, Copyright (c) 2000-2008 Fabrice Bellard, et al.
  built on Mar 23 2009 00:36:11, gcc: 4.2.1 20070719  [FreeBSD]
Input #0, avi, from 'FeWBoADvKd4.avi':
  Duration: 00:00:39.91, start: 0.000000, bitrate: 898 kb/s
    Stream #0.0: Video: mpeg4, yuv420p, 320x238 [PAR 1:1 DAR 160:119], 30.00 tb(r)
    Stream #0.1: Audio: mp2, 22050 Hz, mono, 64 kb/s
Must supply at least one output file


Saludos
En línea

Donaciones
1Coffee1jV4gB5gaXfHgSHDz9xx9QSECVW
Páginas: [1] Ir Arriba Respuesta Imprimir 

Ir a:  

Mensajes similares
Asunto Iniciado por Respuestas Vistas Último mensaje
(SOLUCIONADO) pitidos al ver videos del youtube
Hardware
CrÄsH 5 4,924 Último mensaje 6 Marzo 2012, 04:13 am
por CrÄsH
Algunos vídeos de Youtube se ven mal « 1 2 »
GNU/Linux
javirk 14 9,015 Último mensaje 6 Abril 2012, 22:09 pm
por Foxy Rider
[Solucionado]Audio YouTube. No se oye « 1 2 »
GNU/Linux
manri98 10 3,633 Último mensaje 28 Marzo 2014, 22:28 pm
por dato000
Los vídeos del morbo: así se forran algunos en YouTube con el niño Gabriel Cruz
Noticias
wolfbcn 0 514 Último mensaje 14 Marzo 2018, 01:43 am
por wolfbcn
Hackean YouTube y eliminan algunos de los vídeos más populares
Noticias
wolfbcn 0 983 Último mensaje 10 Abril 2018, 21:47 pm
por wolfbcn
WAP2 - Aviso Legal - Powered by SMF 1.1.21 | SMF © 2006-2008, Simple Machines