elhacker.net cabecera Bienvenido(a), Visitante. Por favor Ingresar o Registrarse
¿Perdiste tu email de activación?.


 


Tema destacado: ¿Eres nuevo? ¿Tienes dudas acerca del funcionamiento de la comunidad? Lee las Reglas Generales


+  Foro de elhacker.net
|-+  Informática
| |-+  Multimedia (Moderador: Songoku)
| | |-+  Codec de audio indetectable
0 Usuarios y 1 Visitante están viendo este tema.
Páginas: [1] Ir Abajo Respuesta Imprimir
Autor Tema: Codec de audio indetectable  (Leído 755 veces)
WildFroVII


Desconectado Desconectado

Mensajes: 441



Ver Perfil
Codec de audio indetectable
« en: 27 Agosto 2017, 23:01 »

Hola amigos!, :D. Cuanto tiempo, XD. Lo poco que llegué a aprender de programación web ya no lo uso, y lo poco que llegué a aprender de programación en php, ni lo recuerdo, XDD, pero aquí estamos, en elhacker.net; por algo será.

  Y es que tengo un problemilla al que no consigo encontrarle solución a pesar de que me conviene, por eso recurro a algún posible apasionado de este tema para ver si pudiera encontrarme como reproducir este formato de audio en el pc (Windows 10, e instalados una tupa de codecs (a granel, todo hay que decirlo, :P)), ya que el móvil si los reproduce, pero no el pc...y me suena que los vídeos que grababa antes con este móvil el pc si los reproducía...pero bueno, no estoy seguro.

  O paso uno de los archivos en plan prueba para que intentéis averiguar algo a ver si me solucionais la papeleta.

  https://drive.google.com/open?id=0B0hecqh7BWuyLVFKVVQ2NUZkdEU

  ¡Gracias!.
 

 


En línea

Machacador


Desconectado Desconectado

Mensajes: 945



Ver Perfil WWW
Re: Codec de audio indetectable
« Respuesta #1 en: 27 Agosto 2017, 23:21 »

VLC no lo reproduce... no se que lo reproducirá...

Aquí dejo la info a ver si alguien sabe con que se puede reproducir... a mi solo me salen sombras color carne como de una mano, pero nada de sonido...

Citar
General
Complete name                            : C:\Users\Usuario\Downloads\Video\Prueba.avi
Format                                   : AVI
Format/Info                              : Audio Video Interleave
File size                                : 375 KiB
Duration                                 : 10 s 983 ms
Overall bit rate                         : 280 kb/s

Video
ID                                       : 0
Format                                   : JPEG
Codec ID                                 : MJPG
Duration                                 : 10 s 900 ms
Bit rate                                 : 265 kb/s
Width                                    : 160 pixels
Height                                   : 120 pixels
Display aspect ratio                     : 4:3
Frame rate                               : 10.000 FPS
Color space                              : YUV
Chroma subsampling                       : 4:2:2
Bit depth                                : 8 bits
Compression mode                         : Lossy
Bits/(Pixel*Frame)                       : 1.380
Stream size                              : 352 KiB (94%)

Audio
ID                                       : 1
Format                                   : FE
Codec ID                                 : FE
Duration                                 : 10 s 983 ms
Source duration                          : 10 s 984 ms
Bit rate                                 : 12.8 kb/s
Channel(s)                               : 1 channel
Sampling rate                            : 8 000 Hz
Bit depth                                : 16 bits
Stream size                              : 17.2 KiB (5%)
Interleave, duration                     : 100  ms (1.00 video frame)


 :rolleyes: :o :rolleyes:

Saludos.


En línea

WildFroVII


Desconectado Desconectado

Mensajes: 441



Ver Perfil
Re: Codec de audio indetectable
« Respuesta #2 en: 27 Agosto 2017, 23:46 »

Si, el vídeo no está muy claro lo que es porque principalmente era una prueba de audio después de hacer uno ajustes en las opciones del móvil (Wiko Lubi 4, un móvil de llamadas, sms, camarita, reproductor de mp3, radio y para de contar, jeje) precisamente porque el audio no funcionaba, :P. El caso es que el móvil si lo reproduce.
« Última modificación: 28 Agosto 2017, 00:15 por WildFroVII » En línea

Páginas: [1] Ir Arriba Respuesta Imprimir 

Ir a:  

Mensajes similares
Asunto Iniciado por Respuestas Vistas Último mensaje
Codec de audio no reconocido
Multimedia
Battu 7 1,640 Último mensaje 8 Abril 2005, 01:33
por Songoku
Codec AUDIO RADIO???
Multimedia
the_lusitan_king 1 556 Último mensaje 25 Abril 2005, 01:28
por Songoku
codec de audio
Multimedia
molajon 0 473 Último mensaje 23 Febrero 2006, 03:22
por molajon
Problemas con codec de audio en VirtualDub
Multimedia
drunker81 2 4,375 Último mensaje 14 Julio 2008, 19:23
por drunker81
Apple libera su códec de audio ALAC
Noticias
wolfbcn 2 1,235 Último mensaje 28 Octubre 2011, 21:29
por beholdthe
Aviso Legal - Powered by SMF 1.1.21 | SMF © 2006-2008, Simple Machines