elhacker.net cabecera Bienvenido(a), Visitante. Por favor Ingresar o Registrarse
¿Perdiste tu email de activación?.


 


Tema destacado: Sigue las noticias más importantes de elhacker.net en ttwitter!


+  Foro de elhacker.net
|-+  Informática
| |-+  Software
| | |-+  Grabadoras (Moderador: Mordor)
| | | |-+  Crear un archivo CUE de un archivo de audio APE
0 Usuarios y 1 Visitante están viendo este tema.
Páginas: [1] Ir Abajo Respuesta Imprimir
Autor Tema: Crear un archivo CUE de un archivo de audio APE  (Leído 1,277 veces)
MaX2

Desconectado Desconectado

Mensajes: 54


Ver Perfil
Crear un archivo CUE de un archivo de audio APE
« en: 6 Febrero 2015, 11:15 »

Hola, tengo un problema para extraer la canciones de un archivo APE, tengo los dos archivos el APR y el CUE, pero parece que el archivo CUE esta mal porque da un error cuando lo cargo en el EZ CD Audio Converter para extraer su contenido.

No se si le falta alguna linea al CUE y por eso da error, dejo aqui el contenido del archivo CUE por si se puede ver donde si tiene algun error.

Código:
REM GENRE Classical
TITLE "The Four Seasons"
FILE "The Four Seasons.ape" WAVE
  TRACK 01 AUDIO
    TITLE "Allegro"
    INDEX 01 00:00:00
  TRACK 02 AUDIO
    TITLE "Largo"
    INDEX 01 03:35:30
  TRACK 03 AUDIO
    TITLE "Allegro (Pastoral dance)"
    INDEX 01 06:24:28
  TRACK 04 AUDIO
    TITLE "Allegro non molto - Allegro"
    INDEX 01 10:47:58
  TRACK 05 AUDIO
    TITLE "Adagio - Presto - Adagio"
    INDEX 01 16:47:03
  TRACK 06 AUDIO
    TITLE "Presto (Summer gales)"
    INDEX 01 18:58:35
  TRACK 07 AUDIO
    TITLE "Allegro (Rustic dance and song)"
    INDEX 01 21:19:01
  TRACK 08 AUDIO
    TITLE "Adagio molto (Sleeping drunkards)"
    INDEX 01 26:21:61
  TRACK 09 AUDIO
    TITLE "Allegro (The chase)"
    INDEX 01 28:46:56
  TRACK 01 AUDIO
    TITLE "Allegro non molto"
    INDEX 01 32:30:23
  TRACK 02 AUDIO
    TITLE "Largo"
    INDEX 01 36:03:68
  TRACK 03 AUDIO
    TITLE "Allegro"
    INDEX 01 38:26:34



Se puede crear un nuevo archivo CUE de ese APE ?



Salu2.


En línea

Songoku
Supersayan y
CoAdmin
***
Desconectado Desconectado

Mensajes: 15.158


Supersayan


Ver Perfil WWW
Re: Crear un archivo CUE de un archivo de audio APE
« Respuesta #1 en: 6 Febrero 2015, 14:53 »

Asegúrate de que ambos osea ape y cue están en la misma carpeta, y al ape ponle un nombre sin espacios ni signos ni ñ, algo asi como nombre.ape.
Después abre el cue con el notepad y en la tercera linea donde ahora pone:

FILE "The Four Seasons.ape" WAVE

Cambia lo que esta entrecomillado por el nombre EXACTO que as puesto al ape, en este caso seria así:

FILE "nombre.ape" WAVE

Suerte y saludos...

Songoku


En línea

MaX2

Desconectado Desconectado

Mensajes: 54


Ver Perfil
Re: Crear un archivo CUE de un archivo de audio APE
« Respuesta #2 en: 6 Febrero 2015, 16:07 »

Gracias cuando llegue a casa lo pruebo pero te diré que con otros archivos que tienen espacios en el nombre no he tenido problemas
En línea

MaX2

Desconectado Desconectado

Mensajes: 54


Ver Perfil
Re: Crear un archivo CUE de un archivo de audio APE
« Respuesta #3 en: 6 Febrero 2015, 19:45 »

Hola Songoku, al final lo he solucionado, he cambiado el nombre del archivo y seguida dando error, tenia mal unos numeros de pistas




Gracias.
En línea

Páginas: [1] Ir Arriba Respuesta Imprimir 

Ir a:  

Aviso Legal - Powered by SMF 1.1.21 | SMF © 2006-2008, Simple Machines